Mufti Kannada Movie Download Hd 720p

Posted on  by admin
Mufti Kannada Movie Download Hd 720pMovie

Mufti kannada full movie download mp4 hd 720p tamilrockers. Steve Lander Thinkstock Images / Comstock / Getty Intes iTunes is more than a simple media management application. It is also a gateway for one of the largest media stores in the world - The iTunes Media Store. 2017 Mufti Full Movie Download is leaked online for Free in HD, 720p, 1080p. 'Mufti' is a 2017 Kannada neo-noir action thriller movie directed by Narthan. The Movie is Produced by Jayanna, Bhogendra under Jayanna CombinesProductions. When we consider the Casting of this movie, the lead roles are played by Shiva Rajkumar, Sriimurali, Shanvi. Mufti is a 2017 Indian Kannada-language neo-noir action crime thriller film. The film tells the story of a police officer, played by Sriimurali, who tracks d. HDMoviePlus Download Latest 300MB Movies, 700MB Movies, Hindi Dubbed Movies, Dual Audio Movies, Bollywood, Hollywood, South, Horror Movies, BluRay, Brrip, Full HD Movie. TamilBlasters.com Latest Movies Download. TamilBlasters New Tamil Dubbed Movies Multi Audios Telugu Kannada Malayalam Hindi Download tamilblasters.

MovieMufti kannada movie download hd 720p torrent

Mufti Kannada Movie Download Hd 720p

Visit www.movcr.com
Mufti (2017) Hindi Dubbed 720p x264 AAC [MovCR]
https://www.imdb.com/title/tt6405208/
General
Unique ID : 285647874264079724488099153307259622641 (0xD6E5C78AA9A7B2238F02E6717BA3D4F1)
Complete name : [www.MovCR.com] Mufti (2017) Hindi Dubbed 720p x264 AAC [MovCR]www.MovCR.com - Mufti (2017) Hindi Dubbed 720p x264 AAC [MovCR].mkv
Format : Matroska
Format version : Version 4 / Version 2
File size : 1.39 GiB
Duration : 2 h 24 min
Overall bit rate : 1 377 kb/s
Movie name : www.MovCR.com
Encoded date : UTC 2018-04-22 04:39:35
Writing application : mkvmerge v21.0.0 ('Tardigrades Will Inherit The Earth') 64-bit
Writing library : libebml v1.3.5 + libmatroska v1.4.8
Video
ID : 1
Format : AVC
Format/Info : Advanced Video Codec
Format profile : [email protected]
Format settings, CABAC : Yes
Format settings, ReFrames : 3 frames
Codec ID : V_MPEG4/ISO/AVC
Duration : 2 h 24 min
Bit rate : 1 249 kb/s
Width : 1 280 pixels
Height : 720 pixels
Display aspect ratio : 16:9
Frame rate mode : Constant
Frame rate : 25.000 FPS
Color space : YUV
Chroma subsampling : 4:2:0
Bit depth : 8 bits
Scan type : Progressive
Bits/(Pixel*Frame) : 0.054
Stream size : 1.26 GiB (91%)
Title : www.MovCR.com
Default : Yes
Forced : No
Color range : Limited
Color primaries : BT.709
Transfer characteristics : BT.709
Matrix coefficients : BT.709
Audio
ID : 2
Format : AAC
Format/Info : Advanced Audio Codec
Format profile : LC
Codec ID : A_AAC
Duration : 2 h 24 min
Bit rate : 126 kb/s
Channel(s) : 2 channels
Channel positions : Front: L R
Sampling rate : 44.1 kHz
Frame rate : 43.066 FPS (1024 spf)
Compression mode : Lossy
Stream size : 130 MiB (9%)
Title : www.MovCR.com
Language : Hindi
Default : Yes
Forced : No