Attack The Block Free Movie Download

Posted on  by admin
  1. Attack The Block Free Movie Download Full
  2. Attack The Block Free Movie Download Full
  3. Attack The Block Free Online
  4. Attack The Block Free Movie Download Torrents

LQE Filme No Turning Back 2014 kostenlos online anschauen

Hello I'm Felicia Smith . I desire to share you How to watch No Turning Back full movie, online For Free? Officially Released HQ 123movies [DVD-ENGLISH] No Turning Back (2014) Full Movie Watch online, free Dailymotion [No Turning Back] Google Drive/[DvdRip-USA/Eng-Subs] No Turning Back! (2014) Full Movie Watch online No Sign Up 123 Movies #Online !! No Turning Back (2014) [MATRIX ] Watch No Turning Back Online 2014 Full Movie Free HD.720Px Watch No Turning Back Online 2014 Full MovieS Free HD !! No Turning Back (2014) Download Free with English Subtitles ready for download, No Turning Back 2014 720p, 1080p, BrRip, DvdRip, Youtube, Reddit, Multilanguage and High Quality. Watch No Turning Back 2014 full movie, online, free ★★★★☆ User rating: 7.2 / 10 (Based on 2222 Reviews) No Turning Back 2014 Movie Overview: No Turning Back (2014) - Ivan Locke, ein hingebungsvoller Ehemann, Vater und hart arbeitender Leiter einer Großbaustelle, steht kurz vor der größten Herausforderun
Attack The Block Free Movie Download

Attack The Block Free Movie Download Full

Download attack the block imdb parents guide - for iPod manual chm for free online at uz.fb2an.site. Attack the Blocks is an awesome game to kill time. Super fun for all ages. Free to play - Endless gameplay - Simple swipe control - Shoot up all balls and destroy the flying balls - Boss fight - Many beautiful themes will random in each game - Challenge your friends with the best score. Download it for free and have fun!

Attack The Block Free Movie Download

[align=center]
[size=medium][font=verdana]

Attack The Block Free Movie Download Full

Movie

Attack The Block Free Online

Movie

Attack.The.Block.2011.480p.BRRip.XviD.AC3-PRESTiGE

Attack The Block Free Movie Download Torrents

[/font][/size]
[font=Verdana]TiTLE............: Attack.The.Block.2011.480p.BRRip.XviD.AC3-PRESTiGE
iMDB.............: http://www.imdb.com/title/tt1478964/
GENRE............: Action Comedy Sci-Fi
LANGUAGE.........: English
FORMAT...........: AVi
SOURCE...........: 720p.BluRay.x264-iNFAMOUS MANY THANKS!!
FiLE SiZE........: 2.07 GB
SAMPLE iNCLUDED..: YES
SUBS.............: NoNE
DURATiON.........: 1h 27mn
ENCODED by.......: akosipalos
:info:
ID : 0
Format : MPEG-4 Visual
Format profile : Advanced [email protected]
Format settings, BVOP : 2
Format settings, QPel : No
Format settings, GMC : No warppoints
Format settings, Matrix : Default (H.263)
Codec ID : XVID
Codec ID/Hint : XviD
Duration : 1h 27mn
Bit rate : 2 929 Kbps
Width : 720 pixels
Height : 304 pixels
Display aspect ratio : 2.35:1
Frame rate : 24.000 fps
Color space : YUV
Chroma subsampling : 4:2:0
Bit depth : 8 bits
Scan type : Progressive
Compression mode : Lossy
Bits/(Pixel*Frame) : 0.558
Stream size : 1.79 GiB (87%)
Writing library : XviD 1.2.1 (UTC 2008-12-04)
ID : 1
Format : AC-3
Format/Info : Audio Coding 3
Mode extension : CM (complete main)
Codec ID : 2000
Duration : 1h 27mn
Bit rate mode : Constant
Bit rate : 448 Kbps
Channel(s) : 6 channels
Channel positions : Front: L C R, Side: L R, LFE
Sampling rate : 48.0 KHz
Bit depth : 16 bits
Compression mode : Lossy
Stream size : 281 MiB (13%)
Alignment : Split accross interleaves
Interleave, duration : 500 ms (12.00 video frames)
Interleave, preload duration : 500 ms
A teen gang in South London defend their block from an alien invasion.
Nick Frost ... Ron
Jodie Whittaker ... Sam
Luke Treadaway ... Brewis
Terry Notary ... The Creature
John Boyega ... Moses
[/font]
WE DONT RELEASE EVERYTHING TO OTHERS SITES YOU WANT MORE OF OUR STUFF COME FIND US AT .......
WE ARE LOOKING FOR SUPPLIERS BLURAY CAM R5 PRE RETAIL DVD GOT SOMETHING WE MIGHT LIKE WHEN YOU FIND US TELL US.......
GREETZ
Twisted Bigguy CTFX Whitestag13 akosipalos SeLiNa PA4U2CRiZAL Team RG and To All Encoders Past And Present...

PRESTiGE is the level of respect at which one is regarded by others....RIzE Above Or Sink Below...
[/align]